Mitch Silpa | Nigel Lindsay | The Lucky Man (2018)

+ gaiabet.net »  :::: Dubbed Zone (Dubbed English in Hindi) » English Movies Dubbed in Hindi » High Resolution Movies
|- The Greatest Showman (2017) 1080p BluRay x264 Dual Audio [Hindi DD5.1 - English DD5.1] - Msubs ~Ranv

  • The Greatest Showman (2017) 1080p BluRay x264 Dual Audio [Hindi DD5.1 - English DD5.1] - Msubs ~Ranv 5 2
Currently:  

The Greatest Showman (2017) 1080p BluRay x264 Dual Audio [Hindi DD5.1 - English DD5.1] - Msubs ~Ranv

0 Members and 1 Guest are viewing this topic.

April 24, 2018, 10:23:02 AM
  • Global Moderator
  • Legend Member
  • *****
  • Topic Author
  • Thank You: 6813
  • Reputation: 1509
  • Activity:
    100%
  • Country: in
  • Posts: 4226
  • Topics: 3547
  • Join Date: Jan 2014
  • ıllıllı ѕмoĸιng ιѕ good ғor нealтн ıllıllı :)




The Greatest Showman (2017) 1080p BluRay x264 Dual Audio [Hindi DD5.1 - English DD5.1] - Msubs ~Ranvijay
Thanks To Hammer For Hindi Audio


Buy RDP Online


Quote
Format                                   : Matroska
Format version                           : Version 4 / Version 2
File size                                : 4.54 GiB
Duration                                 : 1 h 44 min
Overall bit rate                         : 6 207 kb/s
Movie name                               : The Greatest Showman (2017) 1080p BluRay x264 Dual Audio [Hindi DD5.1 - English DD5.1] - Msubs ~Ranvijay

Video
Duration                                 : 1 h 44 min
Bit rate                                 : 5 000 kb/s
Width                                    : 1 920 pixels
Height                                   : 800 pixels
Display aspect ratio                     : 2.40:1
Frame rate mode                          : Constant
Frame rate                               : 23.976 (24000/1001) FPS
Stream size                              : 3.66 GiB (81%)
Title                                    : ~Ranvijay~
Language                                 : English
Default                                  : Yes
Forced                                   : No

Audio #1
ID                                       : 2
Format                                   : AC-3
Format/Info                              : Audio Coding 3
Codec ID                                 : A_AC3
Duration                                 : 1 h 44 min
Bit rate mode                            : Constant
Bit rate                                 : 448 kb/s
Channel(s)                               : 6 channels
Channel positions                        : Front: L C R, Side: L R, LFE
Sampling rate                            : 48.0 kHz
Frame rate                               : 31.250 FPS (1536 SPF)
Bit depth                                : 16 bits
Compression mode                         : Lossy
Stream size                              : 336 MiB (7%)
Title                                    : ~Ranvijay~
Language                                 : Hindi
Service kind                             : Complete Main
Default                                  : Yes
Forced                                   : No

Audio #2
ID                                       : 3
Format                                   : AC-3
Format/Info                              : Audio Coding 3
Codec ID                                 : A_AC3
Duration                                 : 1 h 44 min
Bit rate mode                            : Constant
Bit rate                                 : 640 kb/s
Channel(s)                               : 6 channels
Channel positions                        : Front: L C R, Side: L R, LFE
Sampling rate                            : 48.0 kHz
Frame rate                               : 31.250 FPS (1536 SPF)
Bit depth                                : 16 bits
Compression mode                         : Lossy
Stream size                              : 480 MiB (10%)
Title                                    : ~Ranvijay~
Language                                 : English
Service kind                             : Complete Main
Default                                  : No
Forced                                   : No

Text #1
ID                                       : 4
Format                                   : PGS
Muxing mode                              : zlib
Codec ID                                 : S_HDMV/PGS
Codec ID/Info                            : Picture based subtitle format used on BDs/HD-DVDs
Duration                                 : 1 h 43 min
Bit rate                                 : 51.5 kb/s
Count of elements                        : 3728
Stream size                              : 38.1 MiB (1%)
Title                                    : ~Ranvijay~
Language                                 : English
Default                                  : No
Forced                                   : No

Text #2
ID                                       : 5
Format                                   : PGS
Muxing mode                              : zlib
Codec ID                                 : S_HDMV/PGS
Codec ID/Info                            : Picture based subtitle format used on BDs/HD-DVDs
Duration                                 : 1 h 43 min
Bit rate                                 : 167 kb/s
Count of elements                        : 5255
Stream size                              : 124 MiB (3%)
Title                                    : ~Ranvijay~
Language                                 : English
Default                                  : No
Forced                                   : No

Text #3
ID                                       : 6
Format                                   : PGS
Muxing mode                              : zlib
Codec ID                                 : S_HDMV/PGS
Codec ID/Info                            : Picture based subtitle format used on BDs/HD-DVDs
Duration                                 : 1 h 36 min
Bit rate                                 : 54.2 kb/s
Count of elements                        : 2359
Stream size                              : 37.5 MiB (1%)
Title                                    : ~Ranvijay~
Language                                 : English
Default                                  : No
Forced                                   : No

Text #4
ID                                       : 7
Format                                   : PGS
Muxing mode                              : zlib
Codec ID                                 : S_HDMV/PGS
Codec ID/Info                            : Picture based subtitle format used on BDs/HD-DVDs
Duration                                 : 1 h 44 min
Bit rate                                 : 33.3 kb/s
Count of elements                        : 3034
Stream size                              : 24.9 MiB (1%)
Title                                    : ~Ranvijay~
Language                                 : Hindi
Default                                  : Yes
Forced                                   : No

Menu
00:00:00.000                             : en:Chapter 01
00:03:21.618                             : en:Chapter 02
00:11:33.901                             : en:Chapter 03
00:16:21.313                             : en:Chapter 04
00:21:13.397                             : en:Chapter 05
00:25:04.085                             : en:Chapter 06
00:32:10.053                             : en:Chapter 07
00:36:09.417                             : en:Chapter 08
00:41:38.412                             : en:Chapter 09
00:44:41.053                             : en:Chapter 10
00:48:23.901                             : en:Chapter 11
00:53:11.062                             : en:Chapter 12
00:56:20.668                             : en:Chapter 13
01:01:34.524                             : en:Chapter 14
01:07:33.883                             : en:Chapter 15
01:12:00.983                             : en:Chapter 16
01:18:23.448                             : en:Chapter 17
01:22:07.130                             : en:Chapter 18
01:29:04.797                             : en:Chapter 19
01:37:09.573                             : en:Chapter 20














:download:

Quote













File Leeched & Uploaded From




Don't walk as you are king, walk as you don't care who the king is....!!
Never argue with an idiot. They drag you down to their level and then beat you with experience?

Share this topic on FacebookShare this topic on GoogleShare this topic on MySpaceShare this topic on TwitterShare this topic on Yahoo

« Last Edit: April 24, 2018, 08:18:35 PM by Rάήνίјάч1234 »



Don't walk as you are king, walk as you don't care who the king is....!!

Thanks given by:


April 24, 2018, 08:39:51 PM
Reply #1
  • Addic7ed
  • Elite Forces
  • ****
  • Thank You: 117
  • Reputation: 78
  • Activity:
    6.4%
  • Country: pk
  • Posts: 1128
  • Topics: 324
  • Join Date: Sep 2012
  • ShareSpark Member

April 29, 2018, 09:02:21 PM
Reply #2
  • Devoted Member
  • **
  • Thank You: 0
  • Reputation: 12
  • Activity:
    8.6%
  • Country: in
  • Posts: 152
  • Topics: 0
  • Join Date: May 2014
  • ShareSpark Member

Tags:
 

Related Topics




Back to top