Watch movie | Doozers (2012– ) | My Sassy Girl ...

+ gaiabet.net »  :::: Dubbed Zone (Dubbed English in Hindi) » English Movies Dubbed in Hindi » High Resolution Movies
|- Neighbors 2 Sorority Rising 2016 1080p BluRay [Dual Audio] [English-Hindi] Esubs

Neighbors 2 Sorority Rising 2016 1080p BluRay [Dual Audio] [English-Hindi] Esubs

0 Members and 1 Guest are viewing this topic.

April 20, 2018, 01:41:45 PM
  • Admin
  • Legend Member
  • ****
  • Topic Author
  • Thank You: 1858
  • Reputation: 473
  • Activity:
    41.4%
  • Country: in
  • Posts: 3492
  • Topics: 2106
  • Join Date: Dec 2013
  • ShareSpark Member
   
Neighbors 2 Sorority Rising 2016 1080p BluRay [Dual Audio] [English-Hindi] Esubs



Poster





   









   

IMDB               :         


General

Format                      : Matroska
Format version              : Version 4 / Version 2
File size                   : 2.02 GiB
Duration                    : 1 h 32 min
Overall bit rate            : 3 133 kb/s
Encoded date                : UTC 2018-04-20 08:03:28
Writing application         : mkvmerge v20.0.0 ('I Am The Sun') 64-bit
Writing library             : libebml v1.3.5 + libmatroska v1.4.8



Video


ID                          : 1
Format                      : AVC
Format/Info                 : Advanced Video Codec
Format profile              : [email protected]
Format settings             : CABAC / 4 Ref Frames
Format settings, CABAC      : Yes
Format settings, ReFrames   : 4 frames
Codec ID                    : V_MPEG4/ISO/AVC
Duration                    : 1 h 32 min
Bit rate                    : 2 500 kb/s
Width                       : 1 920 pixels
Height                      : 800 pixels
Display aspect ratio        : 2.40:1
Frame rate mode             : Constant
Frame rate                  : 23.976 (23976/1000) FPS
Color space                 : YUV
Chroma subsampling          : 4:2:0
Bit depth                   : 8 bits
Scan type                   : Progressive
Bits/(Pixel*Frame)          : 0.068
Stream size                 : 1.61 GiB (80%)
Writing library             : x264 core 152 r2851M ba24899
Encoding settings           : cabac=1 / ref=4 / deblock=1:-1:-1 / analyse=0x3:0x113 / me=umh / subme=9 / psy=1 / psy_rd=1.00:0.15 / mixed_ref=1 / me_range=24 / chroma_me=1 / trellis=2 / 8x8dct=1 / cqm=0 / deadzone=21,11 / fast_pskip=1 / chroma_qp_offset=-3 / threads=32 / lookahead_threads=4 / sliced_threads=0 / nr=0 / decimate=1 / interlaced=0 / bluray_compat=0 / constrained_intra=0 / bframes=3 / b_pyramid=2 / b_adapt=2 / b_bias=0 / direct=3 / weightb=1 / open_gop=0 / weightp=2 / keyint=250 / keyint_min=25 / scenecut=40 / intra_refresh=0 / rc_lookahead=50 / rc=2pass / mbtree=1 / bitrate=2500 / ratetol=1.0 / qcomp=0.60 / qpmin=0 / qpmax=69 / qpstep=4 / cplxblur=20.0 / qblur=0.5 / vbv_maxrate=31250 / vbv_bufsize=31250 / nal_hrd=none / filler=0 / ip_ratio=1.40 / aq=3:1.00
Language                    : English
Default                     : Yes
Forced                      : No


Audio #1


ID                          : 2
Format                      : AAC
Format/Info                 : Advanced Audio Codec
Format profile              : LC
Codec ID                    : A_AAC-2
Duration                    : 1 h 32 min
Bit rate                    : 224 kb/s
Channel(s)                  : 6 channels
Channel positions           : Front: L C R, Side: L R, LFE
Sampling rate               : 48.0 kHz
Frame rate                  : 46.875 FPS (1024 SPF)
Compression mode            : Lossy
Delay relative to video     : -43 ms
Stream size                 : 148 MiB (7%)
Title                       : English
Language                    : English
Default                     : No
Forced                      : No


Audio #2



ID                          : 3
Format                      : AC-3
Format/Info                 : Audio Coding 3
Codec ID                    : A_AC3
Duration                    : 1 h 32 min
Bit rate mode               : Constant
Bit rate                    : 384 kb/s
Channel(s)                  : 6 channels
Channel positions           : Front: L C R, Side: L R, LFE
Sampling rate               : 48.0 kHz
Frame rate                  : 31.250 FPS (1536 SPF)
Bit depth                   : 16 bits
Compression mode            : Lossy
Delay relative to video     : -43 ms
Stream size                 : 254 MiB (12%)
Title                       : Hindi
Language                    : Hindi
Service kind                : Complete Main
Default                     : Yes
Forced                      : Yes


Text #1


ID                          : 4
Format                      : VobSub
Muxing mode                 : zlib
Codec ID                    : S_VOBSUB
Codec ID/Info               : Picture based subtitle format used on DVDs
Duration                    : 1 h 25 min
Bit rate                    : 19.1 kb/s
Count of elements           : 2261
Stream size                 : 11.6 MiB (1%)
Title                       : English Subtitle 1
Language                    : English
Default                     : Yes
Forced                      : No


Text #2


ID                          : 5
Format                      : VobSub
Muxing mode                 : zlib
Codec ID                    : S_VOBSUB
Codec ID/Info               : Picture based subtitle format used on DVDs
Duration                    : 1 h 26 min
Bit rate                    : 23.1 kb/s
Count of elements           : 1961
Stream size                 : 14.3 MiB (1%)
Title                       : English Subtitle 2
Language                    : English
Default                     : No
Forced                      : No




All Credit Goes To "Hammer" For Org Untouched DD 5.1 384 Kbps Hindi Audio









      























      
      

Share this topic on FacebookShare this topic on GoogleShare this topic on MySpaceShare this topic on TwitterShare this topic on Yahoo

« Last Edit: April 20, 2018, 01:54:59 PM by тнє ωαll 81317 »




Tags:
 

Related Topics




Back to top