New Girl S07E04 VOSTFR HDTV | Download | HD Captain Underpants: The First Epic Movie (2017)

+ gaiabet.net »  :::: Dubbed Zone (Dubbed English in Hindi) » English Movies Dubbed in Hindi » High Resolution Movies
|- National Lampoon's Animal House 1978 BluRay 10Bit 1080p DD5 1 [Dual Audio] [English - Hindi] ESub

National Lampoon's Animal House 1978 BluRay 10Bit 1080p DD5 1 [Dual Audio] [English - Hindi] ESub

0 Members and 1 Guest are viewing this topic.

April 15, 2018, 12:33:46 PM
  • Admin
  • Legend Member
  • ****
  • Topic Author
  • Thank You: 1858
  • Reputation: 473
  • Activity:
    41.4%
  • Country: in
  • Posts: 3492
  • Topics: 2106
  • Join Date: Dec 2013
  • ShareSpark Member

National Lampoon's Animal House 1978 BluRay

10Bit 1080p DD5 1

[Dual Audio] [English - Hindi]

ESub



Poster










   








   
IMDB :      



General


Format                      : Matroska
Format version              : Version 4 / Version 2
File size                   : 2.88 GiB
Duration                    : 1 h 48 min
Overall bit rate            : 3 786 kb/s
Encoded date                : UTC 2018-04-15 06:48:55
Writing application         : mkvmerge v20.0.0 ('I Am The Sun') 64-bit
Writing library             : libebml v1.3.5 + libmatroska v1.4.8


Video


ID                          : 1
Format                      : HEVC
Format/Info                 : High Efficiency Video Coding
Format profile              : Main [email protected]@Main
Codec ID                    : V_MPEGH/ISO/HEVC
Duration                    : 1 h 48 min
Bit rate                    : 2 946 kb/s
Width                       : 1 920 pixels
Height                      : 1 040 pixels
Display aspect ratio        : 1.85:1
Frame rate mode             : Constant
Frame rate                  : 23.976 (24000/1001) FPS
Color space                 : YUV
Chroma subsampling          : 4:2:0
Bit depth                   : 10 bits
Bits/(Pixel*Frame)          : 0.062
Stream size                 : 2.24 GiB (78%)
Default                     : Yes
Forced                      : No
Color range                 : Limited
Color primaries             : BT.709
Transfer characteristics    : BT.709
Matrix coefficients         : BT.709


Audio #1


ID                          : 2
Format                      : AC-3
Format/Info                 : Audio Coding 3
Codec ID                    : A_AC3
Duration                    : 1 h 48 min
Bit rate mode               : Constant
Bit rate                    : 448 kb/s
Channel(s)                  : 6 channels
Channel positions           : Front: L C R, Side: L R, LFE
Sampling rate               : 48.0 kHz
Frame rate                  : 31.250 FPS (1536 SPF)
Bit depth                   : 16 bits
Compression mode            : Lossy
Stream size                 : 349 MiB (12%)
Title                       : English
Language                    : English
Service kind                : Complete Main
Default                     : No
Forced                      : No


Audio #2


ID                          : 3
Format                      : AC-3
Format/Info                 : Audio Coding 3
Codec ID                    : A_AC3
Duration                    : 1 h 48 min
Bit rate mode               : Constant
Bit rate                    : 384 kb/s
Channel(s)                  : 6 channels
Channel positions           : Front: L C R, Side: L R, LFE
Sampling rate               : 48.0 kHz
Frame rate                  : 31.250 FPS (1536 SPF)
Bit depth                   : 16 bits
Compression mode            : Lossy
Stream size                 : 298 MiB (10%)
Title                       : Hindi
Language                    : Hindi
Service kind                : Complete Main
Default                     : Yes
Forced                      : Yes


Text #1


ID                          : 4
Format                      : VobSub
Muxing mode                 : zlib
Codec ID                    : S_VOBSUB
Codec ID/Info               : Picture based subtitle format used on DVDs
Duration                    : 1 h 43 min
Bit rate                    : 8 787 b/s
Count of elements           : 1199
Stream size                 : 6.48 MiB (0%)
Title                       : English Subtitle
Language                    : English
Default                     : No
Forced                      : No




Text #2


ID                          : 5
Format                      : VobSub
Muxing mode                 : zlib
Codec ID                    : S_VOBSUB
Codec ID/Info               : Picture based subtitle format used on DVDs
Duration                    : 1 h 44 min
Bit rate                    : 4 199 b/s
Count of elements           : 384
Stream size                 : 3.14 MiB (0%)
Title                       : English Subtitle
Language                    : English
Default                     : No
Forced                      : No



Menu


00:00:00.000                : en:(01)00:00:00:000
00:02:35.530                : en:(02)00:02:35:530
00:05:14.981                : en:(03)00:05:14:981
00:11:50.084                : en:(04)00:11:50:084
00:13:37.775                : en:(05)00:13:37:775
00:17:18.412                : en:(06)00:17:18:412
00:19:16.572                : en:(07)00:19:16:572
00:22:21.465                : en:(08)00:22:21:465
00:25:55.095                : en:(09)00:25:55:095
00:28:04.891                : en:(10)00:28:04:891
00:30:51.349                : en:(11)00:30:51:349
00:31:53.453                : en:(12)00:31:53:453
00:34:41.579                : en:(13)00:34:41:579
00:37:11.354                : en:(14)00:37:11:354
00:40:07.113                : en:(15)00:40:07:113
00:43:42.536                : en:(16)00:43:42:536
00:48:25.944                : en:(17)00:48:25:944
00:51:04.853                : en:(18)00:51:04:853
00:54:31.142                : en:(19)00:54:31:142
00:57:34.075                : en:(20)00:57:34:075
01:00:03.391                : en:(21)01:00:03:391
01:06:09.215                : en:(22)01:06:09:215
01:07:50.816                : en:(23)01:07:50:816
01:09:00.636                : en:(24)01:09:00:636
01:12:07.239                : en:(25)01:12:07:239
01:18:15.148                : en:(26)01:18:15:148
01:19:37.063                : en:(27)01:19:37:063
01:21:45.942                : en:(28)01:21:45:942
01:26:37.567                : en:(29)01:26:37:567
01:29:10.845                : en:(30)01:29:10:845
01:32:38.427                : en:(31)01:32:38:427
01:36:02.590                : en:(32)01:36:02:590
01:39:35.970                : en:(33)01:39:35:970
01:41:21.075                : en:(34)01:41:21:075
01:45:22.691                : en:(35)01:45:22:691
01:48:22.621                : en:(36)01:48:22:621
01:48:46.269                : en:(37)01:48:46:269






All Credit Goes To "The Punisher" for Hindi Audio

All Credit Goes To "d3g" for video





      




      
      

Share this topic on FacebookShare this topic on GoogleShare this topic on MySpaceShare this topic on TwitterShare this topic on Yahoo

« Last Edit: April 15, 2018, 12:50:43 PM by тнє ωαll 81317 »




Tags:
 

Related Topics




Back to top