Миллионер из трущоб / Slumdog Millionaire (2008) BDRip 720p от R.G. HD-Films | D, A | 60 fps 48 minutes | S4-EP01 | Growing Pains Aired: 2012-10-11 | Now Streaming - FREE! | Ginga - Nagareboshi Gin

+ gaiabet.net »  :::: Dubbed Zone (Dubbed English in Hindi) » English Movies Dubbed in Hindi » High Resolution Movies
|- The Evil Dead (1981) 1080p BluRay H264 AAC[ Hindi - English ] - ESub

The Evil Dead (1981) 1080p BluRay H264 AAC[ Hindi - English ] - ESub

0 Members and 1 Guest are viewing this topic.

April 13, 2018, 09:02:50 AM
  • Admin
  • Legend Member
  • ****
  • Topic Author
  • Thank You: 1858
  • Reputation: 473
  • Activity:
    41.4%
  • Country: in
  • Posts: 3492
  • Topics: 2106
  • Join Date: Dec 2013
  • ShareSpark Member

The Evil Dead (1981) 1080p BluRay H264 AAC
[ Hindi - English ] - ESub



Poster






   


















   
IMDB :      


General

Format                      : Matroska
Format version              : Version 4 / Version 2
File size                   : 1.76 GiB
Duration                    : 1 h 25 min
Overall bit rate            : 2 948 kb/s
Encoded date                : UTC 2018-04-13 02:27:36
Writing application         : mkvmerge v20.0.0 ('I Am The Sun') 64-bit
Writing library             : libebml v1.3.5 + libmatroska v1.4.8

Video
ID                          : 1
Format                      : AVC
Format/Info                 : Advanced Video Codec
Format profile              : [email protected]
Format settings             : CABAC / 4 Ref Frames
Format settings, CABAC      : Yes
Format settings, ReFrames   : 4 frames
Codec ID                    : V_MPEG4/ISO/AVC
Duration                    : 1 h 25 min
Bit rate                    : 2 500 kb/s
Width                       : 1 920 pixels
Height                      : 1 040 pixels
Display aspect ratio        : 1.85:1
Frame rate mode             : Constant
Frame rate                  : 23.976 (23976/1000) FPS
Color space                 : YUV
Chroma subsampling          : 4:2:0
Bit depth                   : 8 bits
Scan type                   : Progressive
Bits/(Pixel*Frame)          : 0.052
Stream size                 : 1.49 GiB (85%)
Writing library             : x264 core 148 r2597M e86f3a1
Encoding settings           : cabac=1 / ref=4 / deblock=1:-1:-1 / analyse=0x3:0x113 / me=umh / subme=9 / psy=1 / psy_rd=1.00:0.15 / mixed_ref=1 / me_range=24 / chroma_me=1 / trellis=2 / 8x8dct=1 / cqm=0 / deadzone=21,11 / fast_pskip=1 / chroma_qp_offset=-3 / threads=32 / lookahead_threads=4 / sliced_threads=0 / nr=0 / decimate=1 / interlaced=0 / bluray_compat=0 / constrained_intra=0 / bframes=3 / b_pyramid=2 / b_adapt=1 / b_bias=0 / direct=1 / weightb=1 / open_gop=0 / weightp=2 / keyint=250 / keyint_min=25 / scenecut=40 / intra_refresh=0 / rc_lookahead=50 / rc=2pass / mbtree=1 / bitrate=2500 / ratetol=1.0 / qcomp=0.60 / qpmin=0 / qpmax=69 / qpstep=4 / cplxblur=20.0 / qblur=0.5 / vbv_maxrate=31250 / vbv_bufsize=31250 / nal_hrd=none / filler=0 / ip_ratio=1.40 / aq=3:1.00
Default                     : Yes
Forced                      : No

Audio #1
ID                          : 2
Format                      : AAC
Format/Info                 : Advanced Audio Codec
Format profile              : LC
Codec ID                    : A_AAC-2
Duration                    : 1 h 25 min
Bit rate                    : 224 kb/s
Channel(s)                  : 6 channels
Channel positions           : Front: L C R, Side: L R, LFE
Sampling rate               : 48.0 kHz
Frame rate                  : 46.875 FPS (1024 SPF)
Compression mode            : Lossy
Stream size                 : 137 MiB (8%)
Title                       : English
Language                    : English
Default                     : No
Forced                      : No

Audio #2
ID                          : 3
Format                      : AC-3
Format/Info                 : Audio Coding 3
Codec ID                    : A_AC3
Duration                    : 1 h 25 min
Bit rate mode               : Constant
Bit rate                    : 224 kb/s
Channel(s)                  : 2 channels
Channel positions           : Front: L R
Sampling rate               : 48.0 kHz
Frame rate                  : 31.250 FPS (1536 SPF)
Bit depth                   : 16 bits
Compression mode            : Lossy
Stream size                 : 137 MiB (8%)
Title                       : Hindi
Language                    : Hindi
Service kind                : Complete Main
Default                     : Yes
Forced                      : Yes

Text
ID                          : 4
Format                      : UTF-8
Codec ID                    : S_TEXT/UTF8
Codec ID/Info               : UTF-8 Plain Text
Duration                    : 1 h 25 min
Bit rate                    : 25 b/s
Count of elements           : 633
Stream size                 : 15.9 KiB (0%)
Title                       : English Subtitle
Default                     : Yes
Forced                      : No













      






















      
      

Share this topic on FacebookShare this topic on GoogleShare this topic on MySpaceShare this topic on TwitterShare this topic on Yahoo

« Last Edit: April 13, 2018, 09:48:11 AM by тнє ωαll 81317 »



Thanks given by:


April 13, 2018, 09:04:01 AM
Reply #1
  • Addic7ed
  • Royal Member
  • ****
  • Thank You: 466
  • Reputation: 176
  • Activity:
    100%
  • Posts: 1024
  • Topics: 657
  • Join Date: May 2017
  • #Me

Tags:
 

Related Topics




Back to top