WWE: Story Time (2016– ) | Watch Movie | Drama 57,149

+ gaiabet.net »  :::: Dubbed Zone (Dubbed English in Hindi) » English Movies Dubbed in Hindi » High Resolution Movies
|- Lucy (2014) 1080p BluRay x264-[Hindi DTS 5.1-English DTS 5.1] MultiSubs By~Hammer~

Lucy (2014) 1080p BluRay x264-[Hindi DTS 5.1-English DTS 5.1] MultiSubs By~Hammer~

0 Members and 1 Guest are viewing this topic.

April 12, 2018, 07:27:56 PM
  • Global Moderator
  • Legend Member
  • *****
  • Topic Author
  • Thank You: 6813
  • Reputation: 1509
  • Activity:
    100%
  • Country: in
  • Posts: 4226
  • Topics: 3547
  • Join Date: Jan 2014
  • ıllıllı ѕмoĸιng ιѕ good ғor нealтн ıllıllı :)
Lucy (2014) 1080p BluRay x264-[Hindi DTS 5.1-English DTS 5.1] MultiSubs By~Hammer~



Quote
Format                                   : Matroska
Format version                           : Version 4 / Version 2
File size                                : 7.04 GiB
Duration                                 : 1 h 29 min
Overall bit rate                         : 11.3 Mb/s
Movie name                               : Lucy (2014) 1080p BluRay x264-[Hindi DTS 5.1-English DTS 5.1] MultiSubs By~Hammer~


Video
Format                                   : AVC
Bit rate                                 : 8 995 kb/s
Width                                    : 1 920 pixels
Height                                   : 808 pixels
Display aspect ratio                     : 2.40:1
Frame rate mode                          : Constant
Frame rate                               : 23.976 FPS
Language                                 : English
Default                                  : Yes


Audio #1
Format                                   : DTS
Format/Info                              : Digital Theater Systems
Codec ID                                 : A_DTS
Duration                                 : 1 h 29 min
Bit rate mode                            : Constant
Bit rate                                 : 1 509 kb/s
Channel(s)                               : 6 channels
Channel positions                        : Front: L C R, Side: L R, LFE
Sampling rate                            : 48.0 kHz
Frame rate                               : 93.750 FPS (512 SPF)
Bit depth                                : 24 bits
Compression mode                         : Lossy
Stream size                              : 964 MiB (13%)
Title                                    : Eng DTS By~Hammer~
Language                                 : English
Default                                  : No


Audio #2
Format                                   : DTS
Format/Info                              : Digital Theater Systems
Codec ID                                 : A_DTS
Duration                                 : 1 h 29 min
Bit rate mode                            : Constant
Bit rate                                 : 768 kb/s
Channel(s)                               : 6 channels
Channel positions                        : Front: L C R, Side: L R, LFE
Sampling rate                            : 48.0 kHz
Frame rate                               : 93.750 FPS (512 SPF)
Bit depth                                : 24 bits
Compression mode                         : Lossy
Stream size                              : 491 MiB (7%)
Title                                    : Hindi DTS By~Hammer~
Language                                 : Hindi
Default                                  : Yes


Text #1
ID                                       : 3
Format                                   : UTF-8
Codec ID                                 : S_TEXT/UTF8
Codec ID/Info                            : UTF-8 Plain Text
Duration                                 : 50 min 6 s
Bit rate                                 : 3 b/s
Count of elements                        : 59
Stream size                              : 1.44 KiB (0%)
Title                                    : English-Forced
Language                                 : English
Default                                  : Yes
Forced                                   : Yes

Text #2
ID                                       : 5
Format                                   : PGS
Muxing mode                              : zlib
Codec ID                                 : S_HDMV/PGS
Codec ID/Info                            : Picture based subtitle format used on BDs/HD-DVDs
Duration                                 : 1 h 27 min
Bit rate                                 : 6 898 b/s
Count of elements                        : 1588
Stream size                              : 4.32 MiB (0%)
Title                                    : Hindi PGS
Language                                 : Hindi
Default                                  : No
Forced                                   : No

:ss:







:download:

Quote




File Leeched & Uploaded From




Don't walk as you are king, walk as you don't care who the king is....!!
Never argue with an idiot. They drag you down to their level and then beat you with experience?

Share this topic on FacebookShare this topic on GoogleShare this topic on MySpaceShare this topic on TwitterShare this topic on Yahoo




Don't walk as you are king, walk as you don't care who the king is....!!

Thanks given by:


Tags:
 

Related Topics




Back to top