13 mars 2013 | Un Ao Inolvidable BLuRayRip | FullPelix

+ gaiabet.net »  :::: Dubbed Zone (Dubbed English in Hindi) » English Movies Dubbed in Hindi » High Resolution Movies
|- Riddick Trilogy (2000-2013) 1080p BluRay x264 Dual Audio [Hindi - English] - Esubs- By~Hammer~

Riddick Trilogy (2000-2013) 1080p BluRay x264 Dual Audio [Hindi - English] - Esubs- By~Hammer~

0 Members and 1 Guest are viewing this topic.

April 12, 2018, 05:18:57 PM
  • Global Moderator
  • Legend Member
  • *****
  • Topic Author
  • Thank You: 6813
  • Reputation: 1509
  • Activity:
    100%
  • Country: in
  • Posts: 4226
  • Topics: 3547
  • Join Date: Jan 2014
  • ıllıllı ѕмoĸιng ιѕ good ғor нealтн ıllıllı :)


Riddick Trilogy (2000-2013) 1080p BluRay x264 Dual Audio [Hindi - English] - Esubs- By~Hammer~





Pitch Black Directors Cut (2000) 1080p BluRay x264 Dual Audio [ Hindi DD 2.0- Eng DTS 5.1]~Hammer~

Quote
Format                                   : Matroska
Format version                           : Version 4 / Version 2
File size                                : 7.80 GiB
Duration                                 : 1h 51mn
Overall bit rate                         : 9 979 Kbps
Movie name                               : Pitch Black Directors Cut (2000) 1080p BluRa x264 Dual Audio [ Hindi DD 2.0- Eng DTS 5.1] ESubsBy~Hammer~

Video
Duration                                 : 1h 51mn
Bit rate                                 : 8 280 Kbps
Width                                    : 1 920 pixels
Height                                   : 816 pixels
Display aspect ratio                     : 2.35:1
Frame rate mode                          : Constant
Frame rate                               : 23.976 fps
Language                                 : English
Default                                  : Yes
Forced                                   : No

Audio #1
Format                                   : DTS
Duration                                 : 1h 51mn
Bit rate mode                            : Constant
Bit rate                                 : 1 509 Kbps
Channel(s)                               : 6 channels
Channel positions                        : Front: L C R, Side: L R, LFE
Title                                    : By~Hammer~
Language                                 : English
Default                                  : No
Forced                                   : No

Audio #2
Format                                   : AC-3
Duration                                 : 1h 51mn
Bit rate mode                            : Constant
Bit rate                                 : 192 Kbps
Channel(s)                               : 2 channels
Channel positions                        : Front: L R
Title                                    : By~Hammer~
Language                                 : Hindi
Default                                  : Yes
Forced                                   : No








The Chronicles of Riddick (2004) x264 BDRip 1080p Dual Audio [Hindi DD 2.0-English DD 5.1] ESubsBy~Hammer~

Quote
Format                                   : Matroska
Format version                           : Version 4 / Version 2
File size                                : 7.58 GiB
Duration                                 : 1h 59mn
Overall bit rate                         : 9 099 Kbps
Movie name                               : The Chronicles of Riddick (2004) Dual Audio [Hindi DD 2.0-English DD 5.1] ESubsBy~Hammer~

Video
Duration                                 : 1h 59mn
Bit rate                                 : 8 234 Kbps
Width                                    : 1 920 pixels
Height                                   : 800 pixels
Display aspect ratio                     : 2.40:1
Frame rate mode                          : Constant
Frame rate                               : 23.976 fps
Stream size                              : 6.71 GiB (89%)
Title                                    : The Chronicles of Riddick (2004) x264 BDRip 1080p Dual Audio [Hindi DD 2.0-English DD 5.1] ESubsBy~Hammer~
Language                                 : English
Default                                  : Yes
Forced                                   : No

Audio #1
Codec ID                                 : A_AC3
Duration                                 : 1h 59mn
Bit rate mode                            : Constant
Bit rate                                 : 640 Kbps
Channel(s)                               : 6 channels
Channel positions                        : Front: L C R, Side: L R, LFE
Title                                    : By~Hammer~
Language                                 : English
Default                                  : No
Forced                                   : No

Audio #2
Format                                   : AC-3
Codec ID                                 : A_AC3
Duration                                 : 1h 59mn
Bit rate mode                            : Constant
Bit rate                                 : 224 Kbps
Channel(s)                               : 2 channels
Channel positions                        : Front: L R
Title                                    : By~Hammer~
Language                                 : Hindi
Default                                  : Yes
Forced                                   : No

Text
ID                                       : 3
Format                                   : UTF-8
Codec ID                                 : S_TEXT/UTF8
Codec ID/Info                            : UTF-8 Plain Text
Language                                 : English
Default                                  : No
Forced                                   : No

Menu
00:00:00.000                             : :Chapter 01
00:02:37.740                             : :Chapter 02
00:07:13.349                             : :Chapter 03
00:09:20.393                             : :Chapter 04
00:12:38.215                             : :Chapter 05
00:17:56.492                             : :Chapter 06
00:23:24.027                             : :Chapter 07
00:27:27.228                             : :Chapter 08
00:34:03.458                             : :Chapter 09
00:38:20.089                             : :Chapter 10
00:41:37.703                             : :Chapter 11
00:46:02.885                             : :Chapter 12
00:53:27.037                             : :Chapter 13
00:54:48.326                             : :Chapter 14
00:56:53.368                             : :Chapter 15
00:59:42.996                             : :Chapter 16
01:07:19.785                             : :Chapter 17
01:12:02.943                             : :Chapter 18
01:17:57.964                             : :Chapter 19
01:21:21.793                             : :Chapter 20
01:27:27.909                             : :Chapter 21
01:30:35.263                             : :Chapter 22
01:33:32.732                             : :Chapter 23
01:38:45.961                             : :Chapter 24
01:42:07.079                             : :Chapter 25
01:45:06.216                             : :Chapter 26
01:48:07.105                             : :Chapter 27
01:49:37.571                             : :Chapter 28
01:59:12.728                             : :Chapter 29








Riddick (2013) EXTENDED 1080p BluRay x264 Dual Audio [ Hindi DD 5.1- Eng DTS 5.1] ESubsBy~Hammer~

Quote
Format                                   : Matroska
Format version                           : Version 4 / Version 2
File size                                : 9.90 GiB
Duration                                 : 2h 6mn
Overall bit rate                         : 11.2 Mbps
Movie name                               : Riddick (2013) EXTENDED 1080p BluRay x264 Dual Audio [ Hindi DD 5.1- Eng DTS 5.1] ESubsBy~Hammer~

Video
Duration                                 : 2h 6mn
Bit rate                                 : 9 220 Kbps
Width                                    : 1 920 pixels
Height                                   : 800 pixels
Display aspect ratio                     : 2.40:1
Frame rate mode                          : Constant
Frame rate                               : 23.976 fps
Stream size                              : 7.97 GiB (80%)
Title                                    : Riddick (2013) EXTENDED 1080p BluRay x264 Dual Audio [ Hindi DD 5.1- Eng DTS 5.1] ESubsBy~Hammer~
Language                                 : English
Default                                  : Yes
Forced                                   : No

Audio #1
Format                                   : DTS
Format/Info                              : Digital Theater Systems
Duration                                 : 2h 6mn
Bit rate mode                            : Constant
Bit rate                                 : 1 509 Kbps
Channel(s)                               : 6 channels
Channel positions                        : Front: L C R, Side: L R, LFE
Title                                    : DTS ENG By~Hammer~
Language                                 : English
Default                                  : No
Forced                                   : No

Audio #2
Format                                   : AC-3
Codec ID                                 : A_AC3
Duration                                 : 2h 6mn
Bit rate mode                            : Constant
Bit rate                                 : 448 Kbps
Channel(s)                               : 6 channels
Channel positions                        : Front: L C R, Side: L R, LFE
Title                                    : By~Hammer~
Language                                 : Hindi
Default                                  : Yes
Forced                                   : No

Text
ID                                       : 3
Format                                   : UTF-8
Codec ID                                 : S_TEXT/UTF8
Codec ID/Info                            : UTF-8 Plain Text
Language                                 : English
Default                                  : No
Forced                                   : No

Menu
00:00:00.000                             : en:00:00:00.000
00:05:35.418                             : en:00:05:35.418
00:12:10.521                             : en:00:12:10.521
00:23:27.364                             : en:00:23:27.364
00:27:56.425                             : en:00:27:56.425
00:32:11.221                             : en:00:32:11.221
00:38:03.698                             : en:00:38:03.698
00:44:20.283                             : en:00:44:20.283
00:48:40.876                             : en:00:48:40.876
00:56:19.668                             : en:00:56:19.668
01:01:16.673                             : en:01:01:16.673
01:07:35.093                             : en:01:07:35.093
01:15:23.436                             : en:01:15:23.436
01:19:58.836                             : en:01:19:58.836
01:26:51.832                             : en:01:26:51.832
01:31:27.107                             : en:01:31:27.107
01:39:32.717                             : en:01:39:32.717
01:45:32.701                             : en:01:45:32.701
01:53:45.652                             : en:01:53:45.652
02:02:56.160                             : en:02:02:56.160




:download:

Quote

File Leeched & Uploaded From




Don't walk as you are king, walk as you don't care who the king is....!!
Never argue with an idiot. They drag you down to their level and then beat you with experience?

Share this topic on FacebookShare this topic on GoogleShare this topic on MySpaceShare this topic on TwitterShare this topic on Yahoo

« Last Edit: April 12, 2018, 05:20:06 PM by Rάήνίјάч1234 »



Don't walk as you are king, walk as you don't care who the king is....!!

Thanks given by:


Tags:
 

Related Topics




Back to top