HD The Godfather (1972) | Software | Annie Hall

+ gaiabet.net »  :::: Dubbed Zone (Dubbed English in Hindi) » English Movies Dubbed in Hindi » High Resolution Movies
|- Ghost Rider (2007)-(2011) Duology BDRip.1080p x264 [Hindi DD 5.1-English DD. 5.1] ESubs By~Hammer~

Ghost Rider (2007)-(2011) Duology BDRip.1080p x264 [Hindi DD 5.1-English DD. 5.1] ESubs By~Hammer~

0 Members and 1 Guest are viewing this topic.

April 12, 2018, 12:00:20 AM
  • Global Moderator
  • Legend Member
  • *****
  • Topic Author
  • Thank You: 6813
  • Reputation: 1509
  • Activity:
    100%
  • Country: in
  • Posts: 4226
  • Topics: 3547
  • Join Date: Jan 2014
  • ıllıllı ѕмoĸιng ιѕ good ғor нealтн ıllıllı :)


Ghost Rider (2007)-(2011) Duology BDRip.1080p x264  [Hindi DD 5.1-English DD. 5.1] ESubs By~Hammer~



Ghost Rider (2007) Extended.Cut.BDRip.1080p x264  [Hindi DD 5.1-English DD. 5.1] ESubs By~Hammer~




Quote

Format                                   : Matroska
Format version                           : Version 4 / Version 2
File size                                : 5.61 GiB
Duration                                 : 2 h 3 min
Overall bit rate                         : 6 505 kb/s
Movie name                               : Ghost Rider (2007) Extended Cut BDRip 1080p x264  [Hindi DD 5.1-English DD. 5.1] ESubs By~Hammer~

Video
Duration                                 : 2 h 3 min
Bit rate                                 : 5 415 kb/s
Width                                    : 1 920 pixels
Height                                   : 800 pixels
Display aspect ratio                     : 2.40:1
Frame rate mode                          : Constant
Frame rate                               : 23.976 (24000/1001) FPS
Stream size                              : 4.67 GiB (83%)
Title                                    : By~Hammer~
Language                                 : English

Audio #1
ID                                       : 2
Format                                   : AC-3
Format/Info                              : Audio Coding 3
Codec ID                                 : A_AC3
Duration                                 : 2 h 3 min
Bit rate mode                            : Constant
Bit rate                                 : 640 kb/s
Channel(s)                               : 6 channels
Channel positions                        : Front: L C R, Side: L R, LFE
Sampling rate                            : 48.0 kHz
Frame rate                               : 31.250 FPS (1536 SPF)
Bit depth                                : 16 bits
Compression mode                         : Lossy
Stream size                              : 565 MiB (10%)
Title                                    : Eng By~Hammer~
Language                                 : English

Audio #2
ID                                       : 4
Format                                   : AC-3
Format/Info                              : Audio Coding 3
Codec ID                                 : A_AC3
Duration                                 : 2 h 3 min
Bit rate mode                            : Constant
Bit rate                                 : 448 kb/s
Channel(s)                               : 6 channels
Channel positions                        : Front: L C R, Side: L R, LFE
Sampling rate                            : 48.0 kHz
Frame rate                               : 31.250 FPS (1536 SPF)
Bit depth                                : 16 bits
Compression mode                         : Lossy
Stream size                              : 395 MiB (7%)
Title                                    : Hindi By~Hammer~
Service kind                             : Complete Main
Default                                  : Yes
Forced                                   : No

Text
ID                                       : 3
Format                                   : UTF-8
Codec ID                                 : S_TEXT/UTF8
Codec ID/Info                            : UTF-8 Plain Text
Duration                                 : 1 h 54 min
Bit rate                                 : 40 b/s
Count of elements                        : 1066
Stream size                              : 33.9 KiB (0%)
Title                                    : Eng
Language                                 : English
Default                                  : No
Forced                                   : No

:ss:








Ghost Rider-Spirit of Vengeance (2011) BDRip.1080p x264  [Hindi DD 5.1-English DD. 5.1] ESubs By~Hammer~

Quote
Format                                   : Matroska
Format version                           : Version 4 / Version 2
File size                                : 5.76 GiB
Duration                                 : 1 h 35 min
Overall bit rate                         : 8 636 kb/s
Movie name                               : Ghost Rider-Spirit of Vengeance (2011) BDRip 1080p x264  [Hindi DD 5.1-English DD. 5.1] ESubs By~Hammer~

Video
Duration                                 : 1 h 35 min
Bit rate                                 : 7 750 kb/s
Width                                    : 1 920 pixels
Height                                   : 800 pixels
Display aspect ratio                     : 2.40:1
Frame rate mode                          : Constant
Frame rate                               : 23.976 (24000/1001) FPS
Stream size                              : 5.16 GiB (90%)
Title                                    : By~Hammer~
Language                                 : English
Default                                  : Yes

Audio #1
ID                                       : 2
Format                                   : AC-3
Format/Info                              : Audio Coding 3
Codec ID                                 : A_AC3
Duration                                 : 1 h 35 min
Bit rate mode                            : Constant
Bit rate                                 : 448 kb/s
Channel(s)                               : 6 channels
Channel positions                        : Front: L C R, Side: L R, LFE
Sampling rate                            : 48.0 kHz
Frame rate                               : 31.250 FPS (1536 SPF)
Bit depth                                : 16 bits
Compression mode                         : Lossy
Stream size                              : 306 MiB (5%)
Title                                    : Eng By~Hammer~
Language                                 : English
Default                                  : No
Forced                                   : No

Audio #2
ID                                       : 4
Format                                   : AC-3
Format/Info                              : Audio Coding 3
Codec ID                                 : A_AC3
Duration                                 : 1 h 35 min
Bit rate mode                            : Constant
Bit rate                                 : 448 kb/s
Channel(s)                               : 6 channels
Channel positions                        : Front: L C R, Side: L R, LFE
Sampling rate                            : 48.0 kHz
Frame rate                               : 31.250 FPS (1536 SPF)
Bit depth                                : 16 bits
Compression mode                         : Lossy
Delay relative to video                  : 24 ms
Stream size                              : 306 MiB (5%)
Title                                    : By~Hammer~
Language                                 : Hindi
Default                                  : Yes
Forced                                   : No

Text
ID                                       : 3
Format                                   : UTF-8
Codec ID                                 : S_TEXT/UTF8
Codec ID/Info                            : UTF-8 Plain Text
Duration                                 : 1 h 27 min
Bit rate                                 : 31 b/s
Count of elements                        : 825
Stream size                              : 20.1 KiB (0%)
Title                                    : Eng
Language                                 : English
Default                                  : No
Forced                                   : No

:ss:







:download:

Ghost Rider (2007) Extended.Cut.BDRip.1080p x264  [Hindi DD 5.1-English DD. 5.1] ESubs By~Hammer~

Quote






Ghost Rider-Spirit of Vengeance (2011) BDRip.1080p x264  [Hindi DD 5.1-English DD. 5.1] ESubs By~Hammer~

Quote






File Leeched & Uploaded From




Don't walk as you are king, walk as you don't care who the king is....!!
Never argue with an idiot. They drag you down to their level and then beat you with experience?

Share this topic on FacebookShare this topic on GoogleShare this topic on MySpaceShare this topic on TwitterShare this topic on Yahoo

« Last Edit: April 19, 2018, 01:17:32 PM by Rάήνίјάч1234 »



Don't walk as you are king, walk as you don't care who the king is....!!

April 12, 2018, 06:32:13 PM
Reply #1
  • Semi Newbie
  • **
  • Thank You: 0
  • Reputation: 0
  • Activity:
    5.6%
  • Country: pk
  • Posts: 16
  • Topics: 0
  • Join Date: Sep 2017
  • ShareSpark Member

April 16, 2018, 07:39:19 PM
Reply #2
  • Newbie
  • **
  • Thank You: 0
  • Reputation: 0
  • Activity:
    0.6%
  • Country: in
  • Posts: 3
  • Topics: 0
  • Join Date: Mar 2015
  • ShareSpark Member

Tags:
 

Related Topics




Back to top