افلام مترجمة | dzieciak rządzi cda po polsku | 2 Headed Shark Attack 2012 Hindi Dubbed 720p HDRip 650mb

+ gaiabet.net »  :::: Dubbed Zone (Dubbed English in Hindi) » English Movies Dubbed in Hindi » High Resolution Movies
|- Captain America The First Avenger (2011) 1080p BluRay x264 Dual Audio [Hindi DD5.1 - English DD5.1]

Captain America The First Avenger (2011) 1080p BluRay x264 Dual Audio [Hindi DD5.1 - English DD5.1]

0 Members and 1 Guest are viewing this topic.

April 11, 2018, 12:33:51 AM
  • Global Moderator
  • Legend Member
  • *****
  • Topic Author
  • Thank You: 6813
  • Reputation: 1509
  • Activity:
    100%
  • Country: in
  • Posts: 4226
  • Topics: 3547
  • Join Date: Jan 2014
  • ıllıllı ѕмoĸιng ιѕ good ғor нealтн ıllıllı :)




Captain America The First Avenger (2011) 1080p BluRay x264 Dual Audio [Hindi DD5.1 - English DD5.1] - Esub ~ Ranvijay




Quote
Format                      : Matroska
Format version              : Version 4 / Version 2
File size                   : 4.60 GiB
Duration                    : 2 h 4 min
Overall bit rate            : 5 302 kb/s
Movie name                  : Captain America The First Avenger (2011) 1080p BluRay x264 Dual Audio [Hindi DD5.1 - English DD5.1] - Esub ~ Ranvijay

Video
Duration                    : 2 h 4 min
Bit rate                    : 4 400 kb/s
Width                       : 1 920 pixels
Height                      : 816 pixels
Display aspect ratio        : 2.35:1
Frame rate mode             : Constant
Frame rate                  : 23.976 (24000/1001) FPS
Stream size                 : 3.82 GiB (83%)
Title                       : ~Ranvijay~
Default                     : No
Forced                      : No

Audio #1
ID                          : 3
Format                      : AC-3
Format/Info                 : Audio Coding 3
Mode extension              : CM (complete main)
Format settings, Endianness : Big
Codec ID                    : A_AC3
Duration                    : 2 h 4 min
Bit rate mode               : Constant
Bit rate                    : 448 kb/s
Channel(s)                  : 6 channels
Channel positions           : Front: L C R, Side: L R, LFE
Sampling rate               : 48.0 kHz
Frame rate                  : 31.250 FPS (1536 spf)
Bit depth                   : 16 bits
Compression mode            : Lossy
Stream size                 : 398 MiB (8%)
Title                       : ~Ranvijay~
Language                    : Hindi
Default                     : Yes
Forced                      : No

Audio #2
ID                          : 4
Format                      : AC-3
Format/Info                 : Audio Coding 3
Mode extension              : CM (complete main)
Format settings, Endianness : Big
Codec ID                    : A_AC3
Duration                    : 2 h 4 min
Bit rate mode               : Constant
Bit rate                    : 448 kb/s
Channel(s)                  : 6 channels
Channel positions           : Front: L C R, Side: L R, LFE
Sampling rate               : 48.0 kHz
Frame rate                  : 31.250 FPS (1536 spf)
Bit depth                   : 16 bits
Compression mode            : Lossy
Stream size                 : 398 MiB (8%)
Title                       : ~Ranvijay~
Language                    : English
Default                     : No
Forced                      : No

Text #1
ID                          : 2
Format                      : UTF-8
Codec ID                    : S_TEXT/UTF8
Codec ID/Info               : UTF-8 Plain Text
Duration                    : 2 h 2 min
Bit rate                    : 43 b/s
Count of elements           : 1200
Stream size                 : 39.2 KiB (0%)
Title                       : ~Ranvijay~
Language                    : English
Default                     : No
Forced                      : No

Text #2
ID                          : 5
Format                      : VobSub
Muxing mode                 : zlib
Codec ID                    : S_VOBSUB
Codec ID/Info               : Picture based subtitle format used on DVDs
Duration                    : 2 h 2 min
Bit rate                    : 7 502 b/s
Count of elements           : 1204
Stream size                 : 6.58 MiB (0%)
Title                       : ~Ranvijay~
Language                    : English
Default                     : Yes
Forced                      : No

Menu
00:00:00.000                : :Chapter 01
00:08:12.158                : :Chapter 02
00:14:56.812                : :Chapter 03
00:24:21.543                : :Chapter 04
00:30:39.128                : :Chapter 05
00:38:39.859                : :Chapter 06
00:45:52.166                : :Chapter 07
00:51:58.156                : :Chapter 08
00:57:55.638                : :Chapter 09
01:03:59.293                : :Chapter 10
01:12:22.588                : :Chapter 11
01:19:10.662                : :Chapter 12
01:28:27.051                : :Chapter 13
01:33:53.002                : :Chapter 14
01:42:20.342                : :Chapter 15
01:50:45.055                : :Chapter 16
01:53:46.319                : :Chapter 17
02:04:11.360                : :Chapter 18














:download:

Quote








File Leeched & Uploaded From




Don't walk as you are king, walk as you don't care who the king is....!!
Never argue with an idiot. They drag you down to their level and then beat you with experience?

Share this topic on FacebookShare this topic on GoogleShare this topic on MySpaceShare this topic on TwitterShare this topic on Yahoo

« Last Edit: April 11, 2018, 01:43:13 AM by Rάήνίјάч1234 »



Don't walk as you are king, walk as you don't care who the king is....!!

Thanks given by:


April 29, 2018, 09:16:54 PM
Reply #1
  • Devoted Member
  • **
  • Thank You: 0
  • Reputation: 12
  • Activity:
    8.6%
  • Country: in
  • Posts: 152
  • Topics: 0
  • Join Date: May 2014
  • ShareSpark Member

Tags:
 

Related Topics




Back to top