Schitts Creek HDTV | Don Beddoe | List of Movies

+ gaiabet.net »  :::: Dubbed Zone (Dubbed English in Hindi) » English Movies Dubbed in Hindi » High Resolution Movies
|- Transformers Collection (2007-2017) 1080p Bluray x264 Dual Audio [Hindi DD5.1 - English DD5.1] Esub

  • Transformers Collection (2007-2017) 1080p Bluray x264 Dual Audio [Hindi DD5.1 - English DD5.1] Esub 5 2
Currently:  

Transformers Collection (2007-2017) 1080p Bluray x264 Dual Audio [Hindi DD5.1 - English DD5.1] Esub

0 Members and 1 Guest are viewing this topic.

April 06, 2018, 01:49:47 PM
  • Global Moderator
  • Legend Member
  • *****
  • Topic Author
  • Thank You: 6813
  • Reputation: 1509
  • Activity:
    100%
  • Country: in
  • Posts: 4226
  • Topics: 3547
  • Join Date: Jan 2014
  • ıllıllı ѕмoĸιng ιѕ good ғor нealтн ıllıllı :)





Transformers Collection (2007-2017) 1080p Bluray x264 Dual Audio [Hindi DD5.1 - English DD5.1] Esub ~Ranvijay


Transformers (2007) 1080p BluRay x264 Dual Audio [Hindi DD5.1 - English DD5.1] - Esub ~Ranvijay


Quote
Format                                   : Matroska
Format version                           : Version 4 / Version 2
File size                                : 4.45 GiB
Duration                                 : 2 h 23 min
Overall bit rate                         : 4 438 kb/s
Movie name                               : Transformers (2007) 1080p BluRay x264 Dual Audio [Hindi DD5.1 - English DD5.1] - Esub ~Ranvijay

Video
Duration                                 : 2 h 23 min
Bit rate                                 : 3 337 kb/s
Width                                    : 1 920 pixels
Height                                   : 800 pixels
Display aspect ratio                     : 2.40:1
Frame rate mode                          : Constant
Frame rate                               : 23.976 (24000/1001) FPS
Stream size                              : 3.34 GiB (75%)
Title                                    : ~Ranvijay~
Default                                  : Yes
Forced                                   : No

Audio #1
Format                                   : AC-3
Bit rate mode                            : Constant
Bit rate                                 : 640 kb/s
Channel(s)                               : 6 channels
Channel positions                        : Front: L C R, Side: L R, LFE
Stream size                              : 656 MiB (14%)
Title                                    : ~Ranvijay~
Language                                 : Hindi

Audio #2
Format                                   : AC-3
Bit rate mode                            : Constant
Bit rate                                 : 448 kb/s
Channel(s)                               : 6 channels
Channel positions                        : Front: L C R, Side: L R, LFE
Stream size                              : 460 MiB (10%)
Title                                    : ~Ranvijay~
Language                                 : English
Default                                  : No
Forced                                   : No

Text #1
Format                                   : UTF-8
Title                                    : ~Ranvijay~
Language                                 : English

Text #2
Format                                   : PGS
Title                                    : ~Ranvijay~
Language                                 : English









Transformers Revenge of the Fallen (2009) IMAX 1080p BluRay x264 Dual Audio [Hindi DD5.1 - English DD5.1] - Esub ~ Ranvijay

Quote
Format                                   : Matroska
Format version                           : Version 4 / Version 2
File size                                : 4.93 GiB
Duration                                 : 2 h 30 min
Overall bit rate                         : 4 694 kb/s
Movie name                               : Transformers Revenge of the Fallen (2009) IMAX 1080p BluRay x264 Dual Audio [Hindi DD5.1 - English DD5.1] - Esub ~ Ranvijay

Video
Duration                                 : 2 h 30 min
Bit rate                                 : 3 392 kb/s
Width                                    : 1 920 pixels
Height                                   : 1 080 pixels
Display aspect ratio                     : 16:9
Frame rate mode                          : Constant
Frame rate                               : 23.976 (24000/1001) FPS
Stream size                              : 3.56 GiB (72%)
Title                                    : ~Ranvijay~
Language                                 : English
Default                                  : Yes
Forced                                   : No

Audio #1
Format                                   : AC-3
Bit rate mode                            : Constant
Bit rate                                 : 640 kb/s
Channel(s)                               : 6 channels
Channel positions                        : Front: L C R, Side: L R, LFE
Stream size                              : 689 MiB (14%)
Title                                    : ~Ranvijay~
Language                                 : Hindi
Default                                  : Yes
Forced                                   : No

Audio #2
Format                                   : AC-3
Bit rate mode                            : Constant
Bit rate                                 : 640 kb/s
Channel(s)                               : 6 channels
Channel positions                        : Front: L C R, Side: L R, LFE
Stream size                              : 686 MiB (14%)
Title                                    : ~Ranvijay~
Language                                 : English
Default                                  : No
Forced                                   : No

Text #1
Format                                   : UTF-8
Title                                    : ~Ranvijay~
Language                                 : English

Text #2
Format                                   : PGS
Title                                    : English-PGS
Language                                 : English

Text #3
Format                                   : PGS
Title                                    : English-SDH-PGS
Language                                 : English









Transformers Dark of the Moon (2011) 1080p BluRay x264 Dual Audio [Hindi DD5.1 - English DD5.1] - Msubs ~ Ranvijay

Quote
Format                                   : Matroska
Format version                           : Version 4 / Version 2
File size                                : 4.74 GiB
Duration                                 : 2 h 34 min
Overall bit rate                         : 4 396 kb/s
Movie name                               : Transformers Dark of the Moon (2011) 1080p BluRay x264 Dual Audio [Hindi DD5.1 - English DD5.1] - Msubs ~ Ranvijay

Video
Duration                                 : 2 h 34 min
Bit rate                                 : 3 285 kb/s
Width                                    : 1 920 pixels
Height                                   : 800 pixels
Display aspect ratio                     : 2.40:1
Frame rate mode                          : Constant
Frame rate                               : 23.976 (24000/1001) FPS
Stream size                              : 3.54 GiB (75%)
Title                                    : ~Ranvijay~
Language                                 : English
Default                                  : Yes
Forced                                   : No

Audio #1
Format                                   : AC-3
Bit rate mode                            : Constant
Bit rate                                 : 640 kb/s
Channel(s)                               : 6 channels
Channel positions                        : Front: L C R, Side: L R, LFE
Stream size                              : 707 MiB (15%)
Title                                    : ~Ranvijay~
Language                                 : Hindi
Default                                  : Yes
Forced                                   : No

Audio #2
Format                                   : AC-3
Bit rate mode                            : Constant
Bit rate                                 : 448 kb/s
Channel(s)                               : 6 channels
Channel positions                        : Front: L C R, Side: L R, LFE
Stream size                              : 495 MiB (10%)
Title                                    : ~Ranvijay~
Language                                 : English
Default                                  : No
Forced                                   : No

Text #1
Format                                   : PGS
Title                                    : ~Ranvijay~
Language                                 : English

Text #2
Format                                   : PGS
Title                                    : ~Ranvijay~
Language                                 : Hindi

Text #3
Format                                   : UTF-8
Title                                    : ~Ranvijay~
Language                                 : English









Transformers Age of Extinction (2014) IMAX 1080p BluRay x264 Dual Audio [Hindi DD5.1 - English DD5.1] - Esubs ~ Ranvijay

Quote
Format                                   : Matroska
Format version                           : Version 4 / Version 2
File size                                : 4.77 GiB
Duration                                 : 2 h 45 min
Overall bit rate                         : 4 133 kb/s
Movie name                               : Transformers Age of Extinction (2014) IMAX 1080p BluRay x264 Dual Audio [Hindi DD5.1 - English DD5.1] - Esubs ~ Ranvijay

Video
Duration                                 : 2 h 45 min
Bit rate                                 : 3 021 kb/s
Width                                    : 1 920 pixels
Height                                   : 1 080 pixels
Display aspect ratio                     : 16:9
Frame rate mode                          : Constant
Frame rate                               : 23.976 (24000/1001) FPS
Stream size                              : 3.48 GiB (73%)
Title                                    : ~Ranvijay~
Language                                 : English
Default                                  : Yes
Forced                                   : No

Audio #1
Format                                   : AC-3
Bit rate mode                            : Constant
Bit rate                                 : 640 kb/s
Channel(s)                               : 6 channels
Channel positions                        : Front: L C R, Side: L R, LFE
Stream size                              : 756 MiB (15%)
Title                                    : ~Ranvijay~
Language                                 : Hindi
Default                                  : Yes
Forced                                   : No

Audio #2
Format                                   : AC-3
Bit rate mode                            : Constant
Bit rate                                 : 448 kb/s
Channel(s)                               : 6 channels
Stream size                              : 529 MiB (11%)
Title                                    : ~Ranvijay~
Language                                 : English
Default                                  : No
Forced                                   : No

Text #1
Format                                   : PGS
Title                                    : ~Ranvijay~
Language                                 : English

Text #2
Format                                   : PGS
Title                                    : ~Ranvijay~
Language                                 : English

Text #3
Format                                   : PGS
Title                                    : ~Ranvijay~
Language                                 : English









Transformers The Last Knight 2017 IMAX 1080p BluRay x264 Dual Audio [Hindi DD5.1 - English DD5.1] - Esubs ~ Ranvijay

Quote
Format                                   : Matroska
Format version                           : Version 4 / Version 2
File size                                : 4.75 GiB
Duration                                 : 2 h 34 min
Overall bit rate                         : 4 393 kb/s
Movie name                               : Transformers The Last Knight 2017 IMAX 1080p BluRay x264 Dual Audio [Hindi DD5.1 - English DD5.1] - Esubs ~ Ranvijay

Video
Duration                                 : 2 h 34 min
Bit rate                                 : 3 278 kb/s
Width                                    : 1 920 pixels
Height                                   : 1 008 pixels
Display aspect ratio                     : 1.905
Frame rate mode                          : Constant
Frame rate                               : 23.976 (24000/1001) FPS
Stream size                              : 3.54 GiB (75%)
Title                                    : ~Ranvijay~
Language                                 : English
Default                                  : Yes
Forced                                   : No

Audio #1
Format                                   : AC-3
Bit rate mode                            : Constant
Bit rate                                 : 640 kb/s
Channel(s)                               : 6 channels
Channel positions                        : Front: L C R, Side: L R, LFE
Title                                    : ~Ranvijay~
Language                                 : Hindi
Default                                  : Yes
Forced                                   : No

Audio #2
Format                                   : AC-3
Bit rate mode                            : Constant
Bit rate                                 : 448 kb/s
Channel(s)                               : 6 channels
Channel positions                        : Front: L C R, Side: L R, LFE
Title                                    : ~Ranvijay~
Language                                 : English
Default                                  : No
Forced                                   : No

Text #1
Format                                   : UTF-8
Title                                    : ~Ranvijay~
Language                                 : English

Text #2
Format                                   : UTF-8
Title                                    : ~Ranvijay~
Language                                 : English

Text #3
Format                                   : UTF-8
Title                                    : ~Ranvijay~
Language                                 : English

Text #4
Format                                   : PGS
Title                                    : ~Ranvijay~
Language                                 : English

Text #5
Format                                   : PGS
Title                                    : ~Ranvijay~
Language                                 : English









:download:

Quote

File Leeched & Uploaded From




Don't walk as you are king, walk as you don't care who the king is....!!
Never argue with an idiot. They drag you down to their level and then beat you with experience?

Share this topic on FacebookShare this topic on GoogleShare this topic on MySpaceShare this topic on TwitterShare this topic on Yahoo




Don't walk as you are king, walk as you don't care who the king is....!!

Thanks given by:


April 06, 2018, 07:43:18 PM
Reply #1
  • Devoted Member
  • **
  • Thank You: 16
  • Reputation: 5
  • Activity:
    1.2%
  • Country: pk
  • Posts: 124
  • Topics: 28
  • Join Date: Sep 2013
  • ShareSpark Member

April 15, 2018, 08:43:31 PM
Reply #2
  • Newbie
  • **
  • Thank You: 0
  • Reputation: 0
  • Activity:
    0.8%
  • Country: in
  • Posts: 4
  • Topics: 0
  • Join Date: Mar 2017
  • ShareSpark Member

April 16, 2018, 07:38:14 PM
Reply #3
  • Newbie
  • **
  • Thank You: 0
  • Reputation: 0
  • Activity:
    0.6%
  • Country: in
  • Posts: 3
  • Topics: 0
  • Join Date: Mar 2015
  • ShareSpark Member

April 17, 2018, 07:36:33 PM
Reply #4
  • Devoted Member
  • **
  • Thank You: 0
  • Reputation: 0
  • Activity:
    17.8%
  • Posts: 137
  • Topics: 0
  • Join Date: Nov 2013
  • ShareSpark Member
Need Permission Brother I have send Request can you please allow me to Download :thank:

April 29, 2018, 09:06:44 PM
Reply #5
  • Devoted Member
  • **
  • Thank You: 0
  • Reputation: 12
  • Activity:
    8.6%
  • Country: in
  • Posts: 152
  • Topics: 0
  • Join Date: May 2014
  • ShareSpark Member

April 30, 2018, 08:41:28 PM
Reply #6
  • Newbie
  • **
  • Thank You: 0
  • Reputation: 0
  • Activity:
    0.6%
  • Country: in
  • Posts: 3
  • Topics: 0
  • Join Date: Jan 2017
  • ShareSpark Member

May 21, 2018, 01:37:15 AM
Reply #7
  • Semi Newbie
  • **
  • Thank You: 0
  • Reputation: 0
  • Activity:
    0.4%
  • Country: in
  • Posts: 5
  • Topics: 0
  • Join Date: Mar 2017
  • ShareSpark Member
Need permission dude please.. quick i've send request
OR please seed the torrent of this file. only 1 seed :think:
« Last Edit: May 21, 2018, 01:38:52 AM by [email protected] »

Tags:
 

Related Topics




Back to top