Vol.4 chapter 0 : Extras | Una Especie de Familia (2017) | Howard Hesseman

+ gaiabet.net »  :::: Dubbed Zone (Dubbed English in Hindi) » English Movies Dubbed in Hindi » High Resolution Movies
|- The Shape Of Water (2017) 1080p BluRay x264 Dual Audio [Hindi DD5.1 - English DD5.1] - Msubs ~Ranvij

The Shape Of Water (2017) 1080p BluRay x264 Dual Audio [Hindi DD5.1 - English DD5.1] - Msubs ~Ranvij

0 Members and 1 Guest are viewing this topic.

April 06, 2018, 12:10:08 PM
  • Global Moderator
  • Legend Member
  • *****
  • Topic Author
  • Thank You: 6813
  • Reputation: 1509
  • Activity:
    100%
  • Country: in
  • Posts: 4226
  • Topics: 3547
  • Join Date: Jan 2014
  • ıllıllı ѕмoĸιng ιѕ good ғor нealтн ıllıllı :)





The Shape Of Water (2017) 1080p BluRay x264 Dual Audio [Hindi DD5.1 - English DD5.1] - Msubs ~Ranvijay

Thanks To Mr Rajput For Hindi Audio.

Quote
Format                                   : Matroska
Format version                           : Version 4 / Version 2
File size                                : 4.77 GiB
Duration                                 : 2 h 3 min
Overall bit rate                         : 5 532 kb/s
Movie name                               : The Shape Of Water (2017) 1080p BluRay x264 Dual Audio [Hindi DD5.1 - English DD5.1] - Msubs ~Ranvijay

Video
Duration                                 : 2 h 3 min
Bit rate                                 : 4 620 kb/s
Width                                    : 1 920 pixels
Height                                   : 1 036 pixels
Display aspect ratio                     : 1.85:1
Frame rate mode                          : Constant
Frame rate                               : 23.976 (24000/1001) FPS
Stream size                              : 3.98 GiB (83%)
Title                                    : ~Ranvijay~
Language                                 : English
Default                                  : Yes
Forced                                   : No

Audio #1
ID                                       : 5
Format                                   : AC-3
Format/Info                              : Audio Coding 3
Codec ID                                 : A_AC3
Duration                                 : 2 h 3 min
Bit rate mode                            : Constant
Bit rate                                 : 448 kb/s
Channel(s)                               : 6 channels
Channel positions                        : Front: L C R, Side: L R, LFE
Sampling rate                            : 48.0 kHz
Frame rate                               : 31.250 FPS (1536 SPF)
Bit depth                                : 16 bits
Compression mode                         : Lossy
Stream size                              : 395 MiB (8%)
Title                                    : ~Ranvijay~
Language                                 : Hindi
Service kind                             : Complete Main
Default                                  : Yes
Forced                                   : No

Audio #2
ID                                       : 6
Format                                   : AC-3
Format/Info                              : Audio Coding 3
Codec ID                                 : A_AC3
Duration                                 : 2 h 3 min
Bit rate mode                            : Constant
Bit rate                                 : 448 kb/s
Channel(s)                               : 6 channels
Channel positions                        : Front: L C R, Side: L R, LFE
Sampling rate                            : 48.0 kHz
Frame rate                               : 31.250 FPS (1536 SPF)
Bit depth                                : 16 bits
Compression mode                         : Lossy
Stream size                              : 395 MiB (8%)
Title                                    : ~Ranvijay~
Language                                 : English
Service kind                             : Complete Main
Default                                  : No
Forced                                   : No

Text #1
ID                                       : 2
Format                                   : UTF-8
Codec ID                                 : S_TEXT/UTF8
Codec ID/Info                            : UTF-8 Plain Text
Duration                                 : 1 h 47 min
Bit rate                                 : 3 b/s
Count of elements                        : 169
Stream size                              : 2.51 KiB (0%)
Title                                    : ~Ranvijay~
Language                                 : English
Default                                  : No
Forced                                   : No

Text #2
ID                                       : 3
Format                                   : UTF-8
Codec ID                                 : S_TEXT/UTF8
Codec ID/Info                            : UTF-8 Plain Text
Duration                                 : 1 h 56 min
Bit rate                                 : 43 b/s
Count of elements                        : 1307
Stream size                              : 36.8 KiB (0%)
Title                                    : ~Ranvijay~
Language                                 : English
Default                                  : No
Forced                                   : No

Text #3
ID                                       : 4
Format                                   : UTF-8
Codec ID                                 : S_TEXT/UTF8
Codec ID/Info                            : UTF-8 Plain Text
Duration                                 : 2 h 2 min
Bit rate                                 : 56 b/s
Count of elements                        : 1925
Stream size                              : 51.3 KiB (0%)
Title                                    : ~Ranvijay~
Language                                 : English
Default                                  : No
Forced                                   : No

Text #4
ID                                       : 7
Format                                   : PGS
Muxing mode                              : zlib
Codec ID                                 : S_HDMV/PGS
Codec ID/Info                            : Picture based subtitle format used on BDs/HD-DVDs
Duration                                 : 1 h 47 min
Bit rate                                 : 1 234 b/s
Count of elements                        : 338
Stream size                              : 971 KiB (0%)
Title                                    : ~Ranvijay~
Language                                 : English
Default                                  : No
Forced                                   : No

Text #5
ID                                       : 8
Format                                   : PGS
Muxing mode                              : zlib
Codec ID                                 : S_HDMV/PGS
Codec ID/Info                            : Picture based subtitle format used on BDs/HD-DVDs
Duration                                 : 2 h 2 min
Bit rate                                 : 21.7 kb/s
Count of elements                        : 3856
Stream size                              : 19.1 MiB (0%)
Title                                    : ~Ranvijay~
Language                                 : English
Default                                  : Yes
Forced                                   : No

Text #6
ID                                       : 9
Format                                   : PGS
Muxing mode                              : zlib
Codec ID                                 : S_HDMV/PGS
Codec ID/Info                            : Picture based subtitle format used on BDs/HD-DVDs
Duration                                 : 2 h 1 min
Bit rate                                 : 23.2 kb/s
Count of elements                        : 2825
Stream size                              : 20.1 MiB (0%)
Title                                    : ~Ranvijay~
Language                                 : English
Default                                  : No
Forced                                   : No

Menu #1
00:00:00.000                             : en:00:00:00.000
00:06:24.467                             : en:00:06:24.467
00:12:54.774                             : en:00:12:54.774
00:18:32.987                             : en:00:18:32.987
00:23:45.591                             : en:00:23:45.591
00:29:39.653                             : en:00:29:39.653
00:35:29.836                             : en:00:35:29.836
00:39:30.535                             : en:00:39:30.535
00:42:42.435                             : en:00:42:42.435
00:48:34.036                             : en:00:48:34.036
00:52:26.935                             : en:00:52:26.935
00:57:30.197                             : en:00:57:30.197
01:01:52.542                             : en:01:01:52.542
01:07:35.551                             : en:01:07:35.551
01:12:13.496                             : en:01:12:13.496
01:17:50.791                             : en:01:17:50.791
01:21:17.122                             : en:01:21:17.122
01:26:05.911                             : en:01:26:05.911
01:32:48.480                             : en:01:32:48.480
01:37:18.750                             : en:01:37:18.750
01:43:24.115                             : en:01:43:24.115
01:46:06.610                             : en:01:46:06.610
01:50:31.667                             : en:01:50:31.667
01:58:34.858                             : en:01:58:34.858












:download:

Quote




File Leeched & Uploaded From




Don't walk as you are king, walk as you don't care who the king is....!!
Never argue with an idiot. They drag you down to their level and then beat you with experience?

Share this topic on FacebookShare this topic on GoogleShare this topic on MySpaceShare this topic on TwitterShare this topic on Yahoo

« Last Edit: April 27, 2018, 11:50:37 AM by Rάήνίјάч1234 »



Don't walk as you are king, walk as you don't care who the king is....!!

Thanks given by:


April 15, 2018, 09:52:28 AM
Reply #1
  • Devoted Member
  • **
  • Thank You: 5
  • Reputation: 2
  • Activity:
    0.6%
  • Country: in
  • Posts: 151
  • Topics: 42
  • Join Date: Jan 2013
  • ShareSpark Member

April 26, 2018, 09:18:50 PM
Reply #2
  • Senior Member
  • ***
  • Thank You: 0
  • Reputation: 0
  • Activity:
    5.6%
  • Posts: 226
  • Topics: 3
  • Join Date: Oct 2013
  • ShareSpark Member

April 27, 2018, 11:51:04 AM
Reply #3
  • Global Moderator
  • Legend Member
  • *****
  • Topic Author
  • Thank You: 6813
  • Reputation: 1509
  • Activity:
    100%
  • Country: in
  • Posts: 4226
  • Topics: 3547
  • Join Date: Jan 2014
  • ıllıllı ѕмoĸιng ιѕ good ғor нealтн ıllıllı :)

Don't walk as you are king, walk as you don't care who the king is....!!

April 29, 2018, 09:05:25 PM
Reply #4
  • Devoted Member
  • **
  • Thank You: 0
  • Reputation: 12
  • Activity:
    8.6%
  • Country: in
  • Posts: 152
  • Topics: 0
  • Join Date: May 2014
  • ShareSpark Member

Tags:
 

Related Topics




Back to top