Hollaback Girl - Gwen Stefani
ES-Computing EditPlus 4 3 2560 (x86+x64) + Keygen

+ gaiabet.net »  :::: Dubbed Zone (Dubbed English in Hindi) » English Movies Dubbed in Hindi » Animation Movies
|- Ferdinand.2017.1080p.BluRay.x265.HEVC.Hindi.AC3.DD5.1[Team SSX] [1.6 GB]

Ferdinand.2017.1080p.BluRay.x265.HEVC.Hindi.AC3.DD5.1[Team SSX] [1.6 GB]

0 Members and 1 Guest are viewing this topic.

March 13, 2018, 11:09:33 PM
  • *****************
  • Head Admin
  • Legend Member
  • *****
  • Topic Author
  • Thank You: 6081
  • Reputation: 2667
  • Activity:
    100%
  • Country: in
  • Posts: 18077
  • Topics: 10741
  • Join Date: Mar 2012
  • The Time Is Now......


Video
ID                                       : 1
Format                                   : HEVC
Format/Info                              : High Efficiency Video Coding
Format profile                           : [email protected]@Main
Codec ID                                 : V_MPEGH/ISO/HEVC
Duration                                 : 1 h 48 min
Bit rate                                 : 1 722 kb/s
Width                                    : 1 920 pixels
Height                                   : 808 pixels
Display aspect ratio                     : 2.40:1
Frame rate mode                          : Constant
Frame rate                               : 23.976 (24000/1001) FPS
Color space                              : YUV
Chroma subsampling                       : 4:2:0
Bit depth                                : 8 bits
Bits/(Pixel*Frame)                       : 0.046
Stream size                              : 1.30 GiB (79%)
Default                                  : Yes
Forced                                   : No

Audio
ID                                       : 3
Format                                   : AC-3
Format/Info                              : Audio Coding 3
Codec ID                                 : A_AC3
Duration                                 : 1 h 48 min
Bit rate mode                            : Constant
Bit rate                                 : 448 kb/s
Channel(s)                               : 6 channels
Channel positions                        : Front: L C R, Side: L R, LFE
Sampling rate                            : 48.0 kHz
Frame rate                               : 31.250 FPS (1536 SPF)
Bit depth                                : 16 bits
Compression mode                         : Lossy
Stream size                              : 347 MiB (21%)
Language                                 : Hindi
Service kind                             : Complete Main
Default                                  : Yes
Forced                                   : No

Text
ID                                       : 2
Format                                   : VobSub
Muxing mode                              : zlib
Codec ID                                 : S_VOBSUB
Codec ID/Info                            : Picture based subtitle format used on DVDs
Duration                                 : 1 h 43 min
Bit rate                                 : 10.4 kb/s
Count of elements                        : 1826
Stream size                              : 7.69 MiB (0%)
Language                                 : English
Default                                  : Yes
Forced                                   : No

Menu
00:00:00.000                             : en:00:00:00.000
00:03:37.801                             : en:00:03:37.801
00:08:10.281                             : en:00:08:10.281
00:11:51.461                             : en:00:11:51.461
00:16:23.524                             : en:00:16:23.524
00:24:14.870                             : en:00:24:14.870
00:28:30.459                             : en:00:28:30.459
00:34:03.124                             : en:00:34:03.124
00:37:53.188                             : en:00:37:53.188
00:40:54.160                             : en:00:40:54.160
00:44:55.359                             : en:00:44:55.359
00:49:15.995                             : en:00:49:15.995
00:53:27.246                             : en:00:53:27.246
00:59:40.952                             : en:00:59:40.952
01:03:20.672                             : en:01:03:20.672
01:06:23.271                             : en:01:06:23.271
01:09:19.822                             : en:01:09:19.822
01:12:18.918                             : en:01:12:18.918
01:17:33.941                             : en:01:17:33.941
01:20:55.059                             : en:01:20:55.059
01:25:33.837                             : en:01:25:33.837
01:30:38.391                             : en:01:30:38.391
01:36:01.839                             : en:01:36:01.839
01:38:01.167                             : en:01:38:01.167
























Share this topic on FacebookShare this topic on GoogleShare this topic on MySpaceShare this topic on TwitterShare this topic on Yahoo




Tags:
 

Related Topics




Back to top