ZBrush教程
Millénium 3 – La Reine Dans Le Palais Des Courants Dair

+ gaiabet.net »  :::: Dubbed Zone (Dubbed English in Hindi) » English Movies Dubbed in Hindi » Animation Movies
|- Ferdinand.2017.720p.BluRay.x264.Hindi.AC3.DD5.1[Team SSX] [1.24 GB]

Ferdinand.2017.720p.BluRay.x264.Hindi.AC3.DD5.1[Team SSX] [1.24 GB]

0 Members and 1 Guest are viewing this topic.

March 13, 2018, 09:15:58 PM
  • *****************
  • Head Admin
  • Legend Member
  • *****
  • Topic Author
  • Thank You: 6077
  • Reputation: 2667
  • Activity:
    100%
  • Country: in
  • Posts: 18070
  • Topics: 10734
  • Join Date: Mar 2012
  • The Time Is Now......




Video
ID : 2
Format : AVC
Format/Info : Advanced Video Codec
Format profile : [email protected]
Duration : 1 h 48 min
Bit rate : 1 193 kb/s
Width : 1 280 pixels
Height : 536 pixels
Display aspect ratio : 2.40:1
Frame rate mode : Constant
Frame rate : 23.976 (24000/1001) FPS
Color space : YUV
Chroma subsampling : 4:2:0
Bit depth : 8 bits
Scan type : Progressive
Bits/(Pixel*Frame) : 0.073
Stream size : 922 MiB (73%)
Default : Yes
Forced : No
Color range : Limited
Color primaries : BT.709
Transfer characteristics : BT.709
Matrix coefficients : BT.709

Audio
ID : 3
Format : AC-3
Format/Info : Audio Coding 3
Codec ID : A_AC3
Duration : 1 h 48 min
Bit rate mode : Constant
Bit rate : 448 kb/s
Channel(s) : 6 channels
Channel positions : Front: L C R, Side: L R, LFE
Sampling rate : 48.0 kHz
Frame rate : 31.250 FPS (1536 SPF)
Bit depth : 16 bits
Compression mode : Lossy
Stream size : 347 MiB (27%)
Language : Hindi
Service kind : Complete Main
Default : Yes
Forced : No

Text
ID : 1
Format : UTF-8
Codec ID : S_TEXT/UTF8
Codec ID/Info : UTF-8 Plain Text
Duration : 1 h 43 min
Bit rate : 56 b/s
Count of elements : 1827
Stream size : 42.9 KiB (0%)
Language : English
Default : Yes
Forced : No

Menu
00:00:00.000 : :00:00:00.000
00:03:37.801 : :00:03:37.801
00:08:10.281 : :00:08:10.281
00:11:51.461 : :00:11:51.461
00:16:23.524 : :00:16:23.524
00:24:14.870 : :00:24:14.870
00:28:30.459 : :00:28:30.459
00:34:03.124 : :00:34:03.124
00:37:53.188 : :00:37:53.188
00:40:54.160 : :00:40:54.160
00:44:55.359 : :00:44:55.359
00:49:15.995 : :00:49:15.995
00:53:27.246 : :00:53:27.246
00:59:40.952 : :00:59:40.952
01:03:20.672 : :01:03:20.672
01:06:23.271 : :01:06:23.271
01:09:19.822 : :01:09:19.822
01:12:18.918 : :01:12:18.918
01:17:33.941 : :01:17:33.941
01:20:55.059 : :01:20:55.059
01:25:33.837 : :01:25:33.837
01:30:38.391 : :01:30:38.391
01:36:01.839 : :01:36:01.839
01:38:01.209 : :01:38:01.167


































Share this topic on FacebookShare this topic on GoogleShare this topic on MySpaceShare this topic on TwitterShare this topic on Yahoo




Tags:
 

Related Topics




Back to top