Perfectos Desconocidos BluRayRip AC3 5.1
Psychological

+ gaiabet.net »  :::: Bollywood Zone » Regional Movies » Punjabi Movies
|- Punjab Singh 2018 720p HD Punjabi GOPISAHI

Punjab Singh 2018 720p HD Punjabi GOPISAHI

0 Members and 1 Guest are viewing this topic.

March 13, 2018, 03:15:42 PM
  • Addic7ed
  • Special Member
  • ****
  • Topic Author
  • Thank You: 382
  • Reputation: 88
  • Activity:
    57%
  • Country: in
  • Posts: 803
  • Topics: 759
  • Join Date: Oct 2013
  • ShareSpark Member

Format                         : Matroska
Format version                 : Version 4 / Version 2
File size                      : 516 MiB
Duration                       : 2 h 30 min
Overall bit rate               : 479 kb/s
Movie name                     : Punjab Singh 2018 GOPISAHI

Video
Format                         : AVC
Codec ID                       : V_MPEG4/ISO/AVC
Duration                       : 2 h 30 min
Bit rate                       : 400 kb/s
Width                          : 1 280 pixels
Height                         : 536 pixels
Display aspect ratio           : 2.40:1
Frame rate mode                : Constant
Frame rate                     : 25.000 FPS
Stream size                    : 430 MiB (83%)
Title                          : GOPISAHI
Writing library                : x264 core 155 r2893 b00bcaf

Audio
Format                         : AAC
Duration                       : 2 h 30 min
Bit rate                       : 77.5 kb/s
Channel(s)                     : 6 channels
Channel positions              : Front: L C R, Side: L R, LFE
Sampling rate                  : 44.1 kHz
Frame rate                     : 43.066 FPS (1024 SPF)
Compression mode               : Lossy
Stream size                    : 83.4 MiB (16%)
Language                       : Panjabi








Share this topic on FacebookShare this topic on GoogleShare this topic on MySpaceShare this topic on TwitterShare this topic on Yahoo

« Last Edit: March 13, 2018, 03:18:03 PM by jattsahi2 »


Thanks given by:


March 13, 2018, 09:00:27 PM
Reply #1
  • LaDLa PriNce
  • Addic7ed (Inactive)
  • Legend Member
  • ****
  • Thank You: 212
  • Reputation: 90
  • Activity:
    5%
  • Country: pk
  • Posts: 1765
  • Topics: 161
  • Join Date: Sep 2012
  • I <3 ShareSpark

March 26, 2018, 03:04:15 AM
Reply #2
  • Semi Newbie
  • **
  • Thank You: 0
  • Reputation: 0
  • Activity:
    6.8%
  • Country: af
  • Posts: 34
  • Topics: 0
  • Join Date: Feb 2018
  • ShareSpark Member

April 05, 2018, 03:50:10 PM
Reply #3
  • Elite Member
  • ***
  • Thank You: 0
  • Reputation: 51
  • Activity:
    1.4%
  • Posts: 457
  • Topics: 0
  • Join Date: Nov 2012
  • ShareSpark Member

Tags:
 

Related Topics

  Subject / Started by Replies Last post
2 Replies
1089 Views
Last post January 19, 2018, 04:33:45 PM
by UnikAaYush
1 Replies
902 Views
Last post February 12, 2018, 08:26:57 AM
by Changezi
0 Replies
618 Views
Last post March 10, 2018, 09:15:09 PM
by jattsahi2
0 Replies
532 Views
Last post March 20, 2018, 02:03:30 PM
by jattsahi2
0 Replies
497 Views
Last post April 09, 2018, 01:26:05 PM
by UnikAaYush



Back to top