THE CANTERBURY TALES 1080p
Из Лос-Анджелеса в Вегас

+ gaiabet.net »  :::: Hollywood Zone » Hollywood Movies (Pre Releases)
|- The Greatest Showman 2017 1080p HC HDRip x264 AAC[MW]

The Greatest Showman 2017 1080p HC HDRip x264 AAC[MW]

0 Members and 1 Guest are viewing this topic.

March 04, 2018, 07:41:33 PM
  • Feeling Special
  • Conqueror
  • Elite Member
  • *****
  • Topic Author
  • Thank You: 362
  • Reputation: 55
  • Activity:
    43.2%
  • Country: in
  • Posts: 449
  • Topics: 309
  • Join Date: Oct 2016
  • Born To Live
:title:
The Greatest Showman 2017 1080p HC HDRip x264 AAC[MW] 1.8GB





:info:

General
Format : Matroska
Format version : Version 4 / Version 2
File size : 1.82 GiB
Duration : 1 h 44 min
Overall bit rate : 2 492 kb/s

Video
ID : 1
Format : AVC
Format/Info : Advanced Video Codec
Format profile : [email protected]
Format settings : CABAC / 4 Ref Frames
Format settings, CABAC : Yes
Format settings, ReFrames : 4 frames
Codec ID : V_MPEG4/ISO/AVC
Duration : 1 h 44 min
Bit rate : 2 300 kb/s
Width : 1 920 pixels
Height : 800 pixels
Display aspect ratio : 2.40:1
Frame rate mode : Constant
Frame rate : 29.970 (30000/1001) FPS
Color space : YUV
Chroma subsampling : 4:2:0
Bit depth : 8 bits
Scan type : Progressive
Bits/(Pixel*Frame) : 0.050
Stream size : 1.68 GiB (92%)
Writing library : x264 core 148 r2708 86b7198
Default : Yes
Forced : No

Audio
ID : 2
Format : AAC
Format/Info : Advanced Audio Codec
Format profile : LC
Codec ID : A_AAC-2
Duration : 1 h 44 min
Bit rate : 192 kb/s
Channel(s) : 2 channels
Channel positions : Front: L R
Sampling rate : 44.1 kHz
Frame rate : 43.066 FPS (1024 SPF)
Compression mode : Lossy
Stream size : 144 MiB (8%)
Language : English
Default : Yes
Forced : No


:ss:






:download:



Share this topic on FacebookShare this topic on GoogleShare this topic on MySpaceShare this topic on TwitterShare this topic on Yahoo



Born To Live. So always Positive

Tags:
 

Related Topics

  Subject / Started by Replies Last post
1 Replies
490 Views
Last post March 03, 2018, 06:06:05 PM
by Changezi
0 Replies
280 Views
Last post March 24, 2018, 08:09:40 PM
by Nightfire
0 Replies
281 Views
Last post March 25, 2018, 08:41:49 PM
by Nightfire
0 Replies
398 Views
Last post March 25, 2018, 09:19:31 PM
by Nightfire
0 Replies
317 Views
Last post April 01, 2018, 09:22:55 AM
by UnikAaYush



Back to top