Jeremy Lutter | Download | Folder Guard 18 3 1 Crack

+ gaiabet.net »  :::: Dubbed Zone (Dubbed English in Hindi) » English Movies Dubbed in Hindi » High Resolution Movies
|- Logan [2017] 1080p BluRay x264 [DD 5.1] [HINDI - ENG] ® I'm Loser ® ~ EXCLUSIVE - 4.20 GB

Logan [2017] 1080p BluRay x264 [DD 5.1] [HINDI - ENG] ® I'm Loser ® ~ EXCLUSIVE - 4.20 GB

0 Members and 1 Guest are viewing this topic.

June 10, 2017, 03:24:50 AM
  • Global Moderator
  • Legend Member
  • *****
  • Topic Author
  • Thank You: 6763
  • Reputation: 1493
  • Activity:
    100%
  • Country: in
  • Posts: 4210
  • Topics: 3531
  • Join Date: Jan 2014
  • ıllıllı ѕмoĸιng ιѕ good ғor нealтн ıllıllı :)
Logan [2017] 1080p BluRay x264 [DD 5.1] [HINDI - ENG] ® I'm Loser ® ~ EXCLUSIVE - 4.20 GB





Format                                   : Matroska
Format version                           : Version 4 / Version 2
File size                                : 4.18 GiB
Duration                                 : 2h 17mn
Overall bit rate                         : 4 356 Kbps
Movie name                               : Logan [2017] 1080p BluRay x264 [DD 5.1] [HINDI - ENG] ® I'm Loser ® ~ EXCLUSIVE
Encoded date                             : UTC 2017-06-09 17:33:09
Writing application                      : mkvmerge v7.9.0 ('Birds') 64bit
Writing library                          : libebml v1.3.1 + libmatroska v1.4.2

Video
ID                                       : 1
Format                                   : AVC
Format/Info                              : Advanced Video Codec
Format profile                           : [email protected]
Format settings, CABAC                   : Yes
Format settings, ReFrames                : 5 frames
Codec ID                                 : V_MPEG4/ISO/AVC
Duration                                 : 2h 17mn
Bit rate                                 : 3 526 Kbps
Width                                    : 1 920 pixels
Height                                   : 804 pixels
Display aspect ratio                     : 2.40:1
Frame rate mode                          : Constant
Frame rate                               : 23.976 (24000/1001) fps
Color space                              : YUV
Chroma subsampling                       : 4:2:0
Bit depth                                : 8 bits
Scan type                                : Progressive
Bits/(Pixel*Frame)                       : 0.095
Stream size                              : 3.38 GiB (81%)
Title                                    : Logan [2017] 1080p BluRay x264 [DD 5.1] [HINDI - ENG] ® I'm Loser ® ~ EXCLUSIVE
Language                                 : Hindi
Default                                  : Yes
Forced                                   : No

Audio #1
ID                                       : 2
Format                                   : AC-3
Format/Info                              : Audio Coding 3
Mode extension                           : CM (complete main)
Format settings, Endianness              : Big
Codec ID                                 : A_AC3
Duration                                 : 2h 17mn
Bit rate mode                            : Constant
Bit rate                                 : 448 Kbps
Channel(s)                               : 6 channels
Channel positions                        : Front: L C R, Side: L R, LFE
Sampling rate                            : 48.0 KHz
Frame rate                               : 31.250 fps (1536 spf)
Compression mode                         : Lossy
Stream size                              : 440 MiB (10%)
Title                                    : DD 5.1 ® I'm Loser ®
Language                                 : Hindi
Default                                  : No
Forced                                   : No

Audio #2
ID                                       : 3
Format                                   : AC-3
Format/Info                              : Audio Coding 3
Mode extension                           : CM (complete main)
Format settings, Endianness              : Big
Codec ID                                 : A_AC3
Duration                                 : 2h 17mn
Bit rate mode                            : Constant
Bit rate                                 : 384 Kbps
Channel(s)                               : 6 channels
Channel positions                        : Front: L C R, Side: L R, LFE
Sampling rate                            : 48.0 KHz
Frame rate                               : 31.250 fps (1536 spf)
Compression mode                         : Lossy
Stream size                              : 377 MiB (9%)
Title                                    : DD 5.1 ® I'm Loser ®
Language                                 : English
Default                                  : No
Forced                                   : No


:ss:



















:download:

Quote








Don't walk as you are king, walk as you don't care who the king is....!!
Never argue with an idiot. They drag you down to their level and then beat you with experience?

Share this topic on FacebookShare this topic on GoogleShare this topic on MySpaceShare this topic on TwitterShare this topic on Yahoo




Don't walk as you are king, walk as you don't care who the king is....!!

Thanks given by:


May 17, 2018, 02:30:14 AM
Reply #1
  • Add +rep
  • Hero Member
  • ***
  • Thank You: 27
  • Reputation: 12
  • Activity:
    1.2%
  • Country: in
  • Posts: 358
  • Topics: 80
  • Join Date: May 2013
  • ℓɨ˅€ ţ๏ďą¥, ƒ๏я ţ๏ʍ๏яя๏ώ ɨţ ώɨℓℓ ąℓℓ β€ hɨ$ţ๏я¥.
:django:Add +Rep and Thanks if u like my post or else i will Shoot u :django:

Tags:
 

Related Topics




Back to top